Главная Торренты Топ Раздач Форум Правила Чат XXX

Привет, гость

Логин:

Пароль:



Регистрация Восстановление пароля


Наши друзья

 Торренты

:: Детали релиза
Скачать
Скачать The.Many.Saints.of.Newark.2021.BDRip.720p.torrent
Название
Скачать
Мультитрекерная раздача

Золотой торрент Множественные святые Ньюарка / The Many Saints of Newark (2021) BDRip 720p | D | Кинопоиск HD

ТипКриминал
Хэш релиза735c41e663e99974a39fa50a912c4f82a7077a6b
Проверено
Этот торрент проверен Администрацией.
Изображение для Множественные святые Ньюарка / The Many Saints of Newark (2021) BDRip 720p | D | Кинопоиск HD (кликните для просмотра полного изображения)
Скриншоты, кадры (Посмотреть)
Изображение для Множественные святые Ньюарка / The Many Saints of Newark (2021) BDRip 720p | D | Кинопоиск HD (кликните для просмотра полного изображения)
Изображение для Множественные святые Ньюарка / The Many Saints of Newark (2021) BDRip 720p | D | Кинопоиск HD (кликните для просмотра полного изображения)
Изображение для Множественные святые Ньюарка / The Many Saints of Newark (2021) BDRip 720p | D | Кинопоиск HD (кликните для просмотра полного изображения)
Изображение для Множественные святые Ньюарка / The Many Saints of Newark (2021) BDRip 720p | D | Кинопоиск HD (кликните для просмотра полного изображения)
Информация о фильме
Название: Множественные святые Ньюарка
Оригинальное название: The Many Saints of Newark
Год выхода: 2021
Жанр: Криминал, драма
Режиссер: Алан Тейлор
В ролях: Майкл Гандольфини, Джон Бернтал, Вера Фармига, Билли Магнуссен, Кори Столл, Алессандро Нивола, Рэй Лиотта, Джон Магаро, Ник Валлелонга, Лесли Одом мл.

Описание: 60-е гг. ХХ столетия, Ньюарк, штат Нью-Джерси. Жители города уже давно позабыли о том, что же собой представляет тихая и размеренная жизнь. И это вовсе не удивительно. Ведь на городских улицах уже несколько лет, как происходит настоящая ганстерская война. И одним из участников этого противостояния является Тони Сопрано – подростковый парнишка, желающий отвоевать свое место в этом мире.

image

Выпущено: США / Warner Bros., Chase Films, HBO Films Home Box Office (HBO)
Продолжительность: 02:00:16
Перевод: Дублированный | Кинопоиск HD

Файл
Формат: MKV
Качество: BDRip 720p
Видео: MPEG-4 AVC, 1280x536, 23.976fps, 7895 Kb/s
Аудио 1: 48KHz, E-AC3, 6 ch, 448 Kb/s | Дублированный | Кинопоиск HD | RUS
Аудио 2: 48KHz, AC3, 6 ch, 448 Kb/s | Дублированный | Кинопоиск HD | RUS
Аудио 3: 48KHz, AC3, 6 ch, 640 Kb/s | Оригинал | ENG
Субтитры: Русские (Forced, full), английские

MediaInfo
Format : Matroska
Format version : Version 4
File size : 7.93 GiB
Duration : 2 h 0 min
Overall bit rate : 9 434 kb/s
Movie name : The Many Saints of Newark 2021 from seleZen
Encoded date : UTC 2021-12-29 21:28:50
Writing application : mkvmerge v59.0.0 ('Shining Star') 64-bit
Writing library : libebml v1.4.2 + libmatroska v1.6.4

Video
ID : 1
Format : AVC
Format/Info : Advanced Video Codec
Format profile : [email protected]
Format settings : CABAC / 12 Ref Frames
Format settings, CABAC : Yes
Format settings, Reference : 12 frames
Codec ID : V_MPEG4/ISO/AVC
Duration : 2 h 0 min
Bit rate : 7 895 kb/s
Width : 1 280 pixels
Height : 536 pixels
Display aspect ratio : 2.40:1
Frame rate mode : Constant
Frame rate : 23.976 (24000/1001) FPS
Color space : YUV
Chroma subsampling : 4:2:0
Bit depth : 8 bits
Scan type : Progressive
Bits/(Pixel*Frame) : 0.480
Stream size : 6.63 GiB (84%)
Title : iFT
Writing library : x264 core 164 r3075+55M Encoded by Azevedo in Brazil
Encoding settings : cabac=1 / ref=12 / deblock=1:-3:-3 / analyse=0x3:0x113 / me=umh / subme=11 / psy=1 / fade_compensate=0.00 / psy_rd=1.05:0.00 / mixed_ref=1 / me_range=48 / chroma_me=1 / trellis=2 / 8x8dct=1 / cqm=0 / deadzone=21,11 / fast_pskip=0 / chroma_qp_offset=-2 / threads=17 / lookahead_threads=4 / sliced_threads=0 / nr=0 / decimate=0 / interlaced=0 / bluray_compat=0 / constrained_intra=0 / fgo=0 / bframes=13 / b_pyramid=2 / b_adapt=2 / b_bias=0 / direct=3 / weightb=1 / open_gop=0 / weightp=2 / keyint=250 / keyint_min=23 / scenecut=40 / intra_refresh=0 / rc_lookahead=60 / rc=crf / mbtree=0 / crf=15.2000 / qcomp=0.63 / qpmin=0:0:0 / qpmax=69:69:69 / qpstep=4 / vbv_maxrate=62500 / vbv_bufsize=78125 / crf_max=0.0 / nal_hrd=none / filler=0 / ip_ratio=1.30 / pb_ratio=1.20 / aq=3:0.78 / aq-sensitivity=10.00 / aq-factor=1.00:1.00:1.00 / aq2=0 / aq3=0
Language : English
Default : Yes
Forced : No
Color range : Limited
Color primaries : BT.709
Transfer characteristics : BT.709
Matrix coefficients : BT.709

Audio #1
ID : 2
Format : E-AC-3
Format/Info : Enhanced AC-3
Commercial name : Dolby Digital Plus
Codec ID : A_EAC3
Duration : 2 h 0 min
Bit rate mode : Constant
Bit rate : 448 kb/s
Channel(s) : 6 channels
Channel layout : L R C LFE Ls Rs
Sampling rate : 48.0 kHz
Frame rate : 31.250 FPS (1536 SPF)
Compression mode : Lossy
Stream size : 385 MiB (5%)
Title : Dub
Language : Russian
Service kind : Complete Main
Default : Yes
Forced : Yes

Audio #2
ID : 3
Format : AC-3
Format/Info : Audio Coding 3
Commercial name : Dolby Digital
Codec ID : A_AC3
Duration : 2 h 0 min
Bit rate mode : Constant
Bit rate : 448 kb/s
Channel(s) : 6 channels
Channel layout : L R C LFE Ls Rs
Sampling rate : 48.0 kHz
Frame rate : 31.250 FPS (1536 SPF)
Compression mode : Lossy
Stream size : 385 MiB (5%)
Title : Dub
Language : Russian
Service kind : Complete Main
Default : No
Forced : No

Audio #3
ID : 4
Format : AC-3
Format/Info : Audio Coding 3
Commercial name : Dolby Digital
Codec ID : A_AC3
Duration : 2 h 0 min
Bit rate mode : Constant
Bit rate : 640 kb/s
Channel(s) : 6 channels
Channel layout : L R C LFE Ls Rs
Sampling rate : 48.0 kHz
Frame rate : 31.250 FPS (1536 SPF)
Compression mode : Lossy
Stream size : 551 MiB (7%)
Title : Original
Language : English
Service kind : Complete Main
Default : No
Forced : No

Text #1
ID : 5
Format : UTF-8
Codec ID : S_TEXT/UTF8
Codec ID/Info : UTF-8 Plain Text
Duration : 1 h 34 min
Bit rate : 6 b/s
Count of elements : 70
Stream size : 4.32 KiB (0%)
Title : Forced
Language : Russian
Default : Yes
Forced : Yes

Text #2
ID : 6
Format : UTF-8
Codec ID : S_TEXT/UTF8
Codec ID/Info : UTF-8 Plain Text
Duration : 1 h 53 min
Bit rate : 89 b/s
Count of elements : 1423
Stream size : 74.6 KiB (0%)
Title : Full
Language : Russian
Default : No
Forced : No

Text #3
ID : 7
Format : UTF-8
Codec ID : S_TEXT/UTF8
Codec ID/Info : UTF-8 Plain Text
Duration : 1 h 53 min
Bit rate : 59 b/s
Count of elements : 1396
Stream size : 49.3 KiB (0%)
Title : Full
Language : English
Default : No
Forced : No

Text #4
ID : 8
Format : UTF-8
Codec ID : S_TEXT/UTF8
Codec ID/Info : UTF-8 Plain Text
Duration : 1 h 55 min
Bit rate : 70 b/s
Count of elements : 1727
Stream size : 59.9 KiB (0%)
Title : SDH
Language : English
Default : No
Forced : No

Menu
00:00:00.000 : Chapter 01
00:11:54.213 : Chapter 02
00:21:18.277 : Chapter 03
00:31:28.970 : Chapter 04
00:40:19.459 : Chapter 05
00:50:07.838 : Chapter 06
01:00:41.346 : Chapter 07
01:10:19.882 : Chapter 08
01:19:52.204 : Chapter 09
01:30:13.325 : Chapter 10
01:39:26.502 : Chapter 11
01:47:53.217 : Chapter 12
01:54:00.667 : Chapter 13
РаздающийПоследний раз был здесь 1 неделю 2 дня 22 часа 53 минуты 51 секунду  назад
Размер7.93 GB (8,509,615,928 байт)
Добавлен14 января 2022 в 17:30:17
Проголосуй за трекер

<< Предыдущий релиз  [из этой категории]   |   [из этой категории]  Следующий релиз >>
Все релизы   |   Все релизы этой категории
:: Список комментариев http://bigfangroup.org
Комментариев нет. Желаете добавить?


Обратная связь: [email protected]
© 2022 BigFANGroup 4.1. Powered by Kinokpk.com releaser 2.70 © 2008-2022.
Торрент трекер, форум трекера, скачать бесплатно фильмы, игры, видео, картинки и многое другое.